[RISOLTO] Video snap su retropie emulatinstation

Qui trovate tutti i thread riguardanti la risoluzione di problemi di diversa natura. Scrivete qui per ricevere supporto se il vostro problema è generico o non esiste (ancora) la sezione apposita per il sistema con cui avete problemi
ivo7679
Messaggi: 15
Iscritto il: gio mar 26, 2020 7:20 pm
Ha ringraziato: 1 volta
È stato ringraziato: 0

Re: Video snap su retropie emulatinstation

Messaggio da ivo7679 »

> -bash: syntax error near unexpected token `2'
scrive questo

Avatar utente
Guybrush
Site Admin
Messaggi: 2289
Iscritto il: gio feb 25, 2016 6:33 pm
Ha ringraziato: 80 volte
È stato ringraziato: 128 volte

Re: Video snap su retropie emulatinstation

Messaggio da Guybrush »

ivo7679 ha scritto:
dom mar 29, 2020 1:17 pm
> -bash: syntax error near unexpected token `2'
scrive questo
Hai sbagliato comando, mi fai vedere il tuo?
"Dobbiamo costruire computer per le masse, non per le classi" J. Tramiel
_____________________________________________________________
Aiutiamo il forum con una donazione :-)

Hardware:
Raspberry Pi Model B Rev 2 (x2)
Raspberry Pi 3 Model B Rev 1.2

ivo7679
Messaggi: 15
Iscritto il: gio mar 26, 2020 7:20 pm
Ha ringraziato: 1 volta
È stato ringraziato: 0

Re: Video snap su retropie emulatinstation

Messaggio da ivo7679 »

avprobe </home/pi/Retropie/roms/mame-libreto/images/1942-video.mp4> 2>&1 | grep Stream

Avatar utente
Guybrush
Site Admin
Messaggi: 2289
Iscritto il: gio feb 25, 2016 6:33 pm
Ha ringraziato: 80 volte
È stato ringraziato: 128 volte

Re: Video snap su retropie emulatinstation

Messaggio da Guybrush »

Guybrush ha scritto:
dom mar 29, 2020 12:51 pm
...quindi sostituisci <percorso file mp4>...
ivo7679 ha scritto:
dom mar 29, 2020 1:45 pm
avprobe </home/pi/Retropie/roms/mame-libreto/images/1942-video.mp4> 2>&1 | grep Stream
Come ho scritto togli < e > dal percorso che punta al tuo file...

Scrivi il percorso in modo corretto, le maiuscole e la minuscole sono importanti, RetroPie non Retropie, ti manca una r in mame-libretro... E' un computer non un tema, i comandi devono essere giusti
"Dobbiamo costruire computer per le masse, non per le classi" J. Tramiel
_____________________________________________________________
Aiutiamo il forum con una donazione :-)

Hardware:
Raspberry Pi Model B Rev 2 (x2)
Raspberry Pi 3 Model B Rev 1.2

ivo7679
Messaggi: 15
Iscritto il: gio mar 26, 2020 7:20 pm
Ha ringraziato: 1 volta
È stato ringraziato: 0

Re: Video snap su retropie emulatinstation

Messaggio da ivo7679 »

pi@retropie:~ $ avprobe /home/pi/RetroPie/roms/mame-libretro/images/1942-video.mp4 2>&1 | grep Stream
Stream #0:0(und): Video: h264 (High 4:4:4 Predictive) (avc1 / 0x31637661), yuv444p, 224x256 [SAR 6:7 DAR 3:4], 100 kb/s, 29.97 fps, 29.97 tbr, 2997 tbn, 59.94 tbc (default)
Stream #0:1(und): Audio: aac (LC) (mp4a / 0x6134706D), 48000 Hz, stereo, fltp, 154 kb/s (default)
scusa per l'errore di prima...


Avatar utente
Guybrush
Site Admin
Messaggi: 2289
Iscritto il: gio feb 25, 2016 6:33 pm
Ha ringraziato: 80 volte
È stato ringraziato: 128 volte

Re: Video snap su retropie emulatinstation

Messaggio da Guybrush »

ivo7679 ha scritto:
dom mar 29, 2020 3:54 pm
Stream #0:0(und): Video: h264 (High 4:4:4 Predictive) (avc1 / 0x31637661), yuv444p, 224x256 [SAR 6:7 DAR 3:4], 100 kb/s, 29.97 fps, 29.97 tbr, 2997 tbn, 59.94 tbc (default)
I video non vanno bene, dovresti avere yuv420p. Fai una prova su quel video, convertilo con questo comando

Codice: Seleziona tutto

ffmpeg -i /home/pi/RetroPie/roms/mame-libretro/images/1942-video.mp4 -vf format=yuv420p /home/pi/RetroPie/roms/mame-libretro/images/1942-video_test.mp4
e poi fai in modo che il gamelist punti al nuovo file 1942-video_test.mp4
"Dobbiamo costruire computer per le masse, non per le classi" J. Tramiel
_____________________________________________________________
Aiutiamo il forum con una donazione :-)

Hardware:
Raspberry Pi Model B Rev 2 (x2)
Raspberry Pi 3 Model B Rev 1.2

ivo7679
Messaggi: 15
Iscritto il: gio mar 26, 2020 7:20 pm
Ha ringraziato: 1 volta
È stato ringraziato: 0

Re: Video snap su retropie emulatinstation

Messaggio da ivo7679 »

evvai.... perfetto---- sei un grande
quindi adesso come mi dovrei muovere

Avatar utente
Ionic
Messaggi: 497
Iscritto il: ven giu 03, 2016 9:34 pm
Ha ringraziato: 32 volte
È stato ringraziato: 21 volte

Re: Video snap su retropie emulatinstation

Messaggio da Ionic »

ivo7679 ha scritto:
dom mar 29, 2020 5:16 pm
quindi adesso come mi dovrei muovere
Prova a immaginare :lol:

ivo7679
Messaggi: 15
Iscritto il: gio mar 26, 2020 7:20 pm
Ha ringraziato: 1 volta
È stato ringraziato: 0

Re: Video snap su retropie emulatinstation

Messaggio da ivo7679 »

e va bhe.... mi tocca
grazie di tutto.... :) :)

Ancamirela.Ciungan
Messaggi: 2
Iscritto il: mer apr 01, 2020 6:11 pm
Ha ringraziato: 1 volta
È stato ringraziato: 0

Re: [RISOLTO] Video snap su retropie emulatinstation

Messaggio da Ancamirela.Ciungan »

buonasera scusate se chiedo aiuto su una questione che e' stata gia' risolta ma essendo ignorante in materia non sono riuscito ad eseguire i comandi sopra citati ho lo stesso problema i video snap sono neri ma riesco a sentire l'audio

Bloccato